#TITLE:The Tussin;
#SUBTITLE:(Robotussin);
#ARTIST:mc chris;
#TITLETRANSLIT:;
#SUBTITLETRANSLIT:;
#ARTISTTRANSLIT:;
#CREDIT:;
#BANNER:thetussinbanner3jm.png;
#BACKGROUND:thetussinbg4om.png;
#LYRICSPATH:;
#CDTITLE:MJ!! icon.gif;
#MUSIC:mc chris - life's a bitch and i'm her pimp - the tussin.mp3;
#OFFSET:0.850;
#SAMPLESTART:23.148;
#SAMPLELENGTH:12.000;
#SELECTABLE:YES;
#BPMS:0.000=110.000;
#STOPS:;
#BGCHANGES:;
// cache tags:
#FIRSTBEAT:2.000;
#LASTBEAT:324.000;
#SONGFILENAME:Songs/Music V.I.P ^_^/(Hiro) The Tussin/The Tussin.sm;
#HASMUSIC:1;
#HASBANNER:1;
#MUSICLENGTH:182.831;
// end cache tags

//---------------dance-single - ----------------
#NOTES:
     dance-single:
     :
     Challenge:
     11:
     0.943,0.886,1.000,0.170,1.000,942.000,234.000,31.000,0.000,0.000:
0000
0000
0000
0000
0000
0000
0000
0000
1001
0100
0001
0100
0010
1000
0010
0100
,
0001
0000
1000
0000
0100
0000
0010
0000
0001
0010
0001
0010
0001
0010
0001
0010
0001
0010
0001
0010
0001
0010
0002
0000
0000
0000
0000
0000
0000
0000
0000
0000
,
1000
0000
0000
0000
1000
0000
0000
0000
1000
0000
0000
0003
2100
0000
0000
3000
,
0011
0000
1000
0100
0010
0000
0100
0000
1010
0000
0001
0100
1000
0000
0100
0000
,
0110
0000
0001
1000
0100
0000
0011
0000
1100
0000
0100
0010
0001
0000
0010
0000
,
1001
0000
0001
1000
0010
0000
1010
0000
0101
0000
0010
1000
0100
0000
0001
0000
,
1100
0000
0001
1000
0100
0000
1100
0000
0101
0000
0010
1000
0001
0000
1000
0000
,
0011
0100
1000
0100
1000
0100
1000
0100
1001
0000
0010
0100
0001
0000
0010
0001
,
1100
0010
0001
0100
0010
0000
0101
0000
0011
0000
0010
0100
1000
0000
0100
0000
,
1001
0000
0010
0100
1000
0000
1100
0000
0101
0000
0001
1000
0100
0000
0110
0000
,
0011
0000
0110
0001
0100
0000
0110
0000
1001
0000
0001
1000
0010
0000
0100
0000
,
1100
0001
0010
0001
0010
0001
0010
0001
0010
0001
1100
1100
0001
0010
0001
0010
,
1100
1000
0001
1000
0001
1000
0001
1000
0001
1000
0110
0110
0001
1000
0001
1000
,
0011
0100
1000
0100
1000
0100
1000
0100
1000
0100
0011
0100
1000
0100
0011
0100
,
1001
0100
0010
1001
0010
0100
0010
0100
0010
0100
1001
0100
0010
0100
1001
0100
,
1001
0100
0001
1000
0100
0000
0010
0000
0011
0000
1100
0000
0101
0000
0100
0000
,
0010
1001
0110
1000
0101
0011
0101
0100
,
0001
0001
1000
0100
0010
0000
0011
0000
0001
1000
0100
0100
0110
0000
0000
0000
,
0000
0001
1000
0000
1000
0001
0100
0010
1000
0010
0100
0001
1100
0000
0000
0000
,
1000
1000
0011
0010
1010
0000
0001
0000
0100
0000
0010
1000
0110
0000
0101
0000
,
1100
0000
1010
0000
0001
1000
0001
0000
0100
0010
0100
0000
0101
0000
0011
0000
,
1100
0010
1001
0100
0010
1000
0010
0000
0000
0001
1000
0100
0001
0100
1000
0100
,
0001
0000
0100
0100
0000
0000
0100
0000
0000
0100
1000
0010
0100
0010
1000
0100
,
0001
0100
1000
0100
1000
0100
1000
0100
1000
0100
1000
0100
1000
0100
1000
0100
1000
0100
0010
0000
0001
0000
0010
0000
0100
0000
1000
0000
0100
0000
0010
0000
,
0200
0000
0000
0000
0310
0000
0001
0010
0110
0001
0010
0000
1000
0000
0100
0000
,
0010
0000
0001
0000
1000
0000
0000
0000
0001
0000
0000
0000
0000
0000
0010
0000
1010
0000
0000
1100
0000
0000
0001
0000
0011
0000
0000
0101
0000
0000
0001
0000
,
1000
0100
1000
0001
0100
0010
1000
0010
0100
0001
1100
0010
1100
0000
0002
0003
,
1000
0100
0010
0001
0010
0000
0100
0010
0100
0010
0001
0010
0001
0010
0100
1000
,
0100
0010
0001
0010
0001
0010
0100
0010
1001
0000
0010
1000
0101
0000
1100
0000
,
1001
0000
0000
0000
1100
0000
0000
0000
0011
0000
1010
0000
0000
0000
0001
0000
1001
0000
0000
1010
0000
0000
1000
0000
1001
0000
0000
1010
0000
0000
0000
0000
,
0110
0000
0000
0001
0010
0000
0000
0000
0000
0000
0100
0010
0001
0000
0101
0000
,
1010
0000
0000
1000
0001
0100
0010
1000
0101
0110
0101
0000
0000
0000
2200
3300
,
0110
1100
0110
0000
0000
0000
0110
0000
0001
0010
0100
1000
0001
0010
0100
1000
,
0101
0000
1100
0000
0110
1001
0000
0001
1001
0100
0010
1000
0100
0010
0100
1000
,
0001
0000
0100
0000
0001
0000
0010
0000
0100
1000
0100
1000
0100
1000
0100
1000
0100
1000
0100
1000
0100
1000
0200
0000
0000
0000
0000
0000
0000
0000
0000
0000
,
0000
0000
0000
0000
0000
0000
0000
0000
0000
0000
0000
0300
0012
0000
0000
0003
,
1001
0000
0001
0010
0100
0000
1100
0000
0011
0000
1000
0010
0100
0000
0001
0000
,
1100
0000
0010
0001
0010
0000
1100
0000
0101
0000
0010
1000
0001
0000
0100
0000
,
0110
0000
0001
1000
0010
0000
0101
0000
1010
0000
0100
0001
1000
0000
0100
0000
,
0011
0000
0100
1000
0010
0000
0101
0000
1010
0000
0001
1000
0001
0000
0010
0000
,
1100
0001
0100
0001
0100
0001
0100
0001
1100
0000
0001
0100
0010
0000
1000
0000
,
1001
0000
1000
0100
0001
0000
0101
0000
1100
0000
0001
0010
0100
0000
1000
0000
,
0101
0000
0010
1000
0100
0000
0011
0000
0101
0000
0001
1000
0010
0000
0110
0000
,
0101
0000
0110
1000
0001
0000
0110
0000
0101
0010
1000
0010
0100
0001
2000
0000
,
3001
0000
0000
0000
0000
0101
0000
0000
1010
0000
0000
0000
0000
0000
0010
0000
1000
0000
0010
0000
0100
0000
0001
0000
1000
0000
0100
0000
0000
0000
0000
0000
,
0100
0000
1000
0000
0001
0000
0100
0000
0001
0000
1000
0000
0100
0000
0010
0000
0001
0000
0010
0000
0100
0000
1000
0000
0001
0000
0000
0000
0000
0000
0000
0001
,
0100
0001
1000
0100
0010
0001
2000
0000
3010
0100
0001
0001
0000
0000
0001
1000
,
1002
0000
1003
0001
2001
0000
3001
1000
0001
0100
0010
1000
0000
0000
0000
0000
,
0101
0000
0000
0000
0011
0000
0000
0000
0000
0000
0001
0000
1000
0000
0100
0000
0011
0000
0000
0001
0000
0000
0100
0000
0000
0101
0000
0000
0001
0000
0100
0000
,
1100
0010
0001
0110
0100
0001
1000
0010
0101
0001
0010
0100
1002
0003
0102
0003
,
0000
1100
0001
1100
0001
1100
0001
1010
0200
0000
0300
0000
0000
0000
0000
0000
,
0000
0011
1000
0011
1000
0011
1000
0110
0002
0000
0003
0000
0000
0000
0000
0000
,
0000
1001
0100
1001
0100
1001
0100
0011
2000
0000
3000
0001
0001
0000
0001
1000
,
1001
0000
0000
1100
0000
0000
0001
0000
1001
0000
0000
0101
0000
0000
0001
0000
1000
0000
0010
0000
0100
0000
0010
0000
0100
0000
0001
0000
0100
0000
0010
0000
,
1000
0100
0011
0100
0011
0000
0002
0003
1000
0100
0010
0100
1000
0000
0010
0100
,
0010
0100
1000
0100
1000
0100
0010
0001
0010
0100
1000
0100
1000
0100
0010
0100
,
1001
0000
0001
1000
0101
0000
1010
0000
1100
0000
1001
0000
1100
1010
0000
0100
,
1010
0000
0000
1100
0000
0000
0100
0000
0011
0000
0000
0101
0000
0000
0000
0000
0001
0000
0000
0000
0000
0000
1000
0000
0100
0000
0000
0000
0000
0000
0000
0000
,
0000
0000
0100
1000
0010
0000
0100
0000
0001
0000
0000
0001
1000
0100
0010
0001
,
1100
0010
0101
0000
0000
0000
0020
0030
1100
0001
0011
0000
0000
0000
0002
0003
,
1000
0100
0010
0001
1000
0100
0010
0001
1001
0000
0110
0000
0011
1100
0000
0001
,
1100
0000
0011
0000
0110
0000
1100
0000
0110
0000
0001
0010
0100
1000
0100
0010
,
1001
0000
0011
0000
1010
0000
1100
0000
0101
0000
0010
1000
0010
0100
0001
1000
,
0110
0000
0001
1000
0110
0000
0001
1100
0011
0000
0110
0000
0011
1010
0110
0000
,
0001
1000
0100
0010
0001
1000
0100
0010
0001
1000
0100
0010
0001
1000
0100
0010
,
0001
0010
0100
1000
0001
0010
0100
1000
0001
0010
0100
1000
0001
0010
0100
1000
,
0001
1000
0100
0010
0001
0010
0100
1000
0001
1000
0100
0010
0001
0010
0100
1000
,
2200
0000
3300
0000
2002
0000
3003
0000
0202
0000
0303
1000
0100
0010
0001
0010
,
2100
0000
0000
0000
0000
0000
3001
0000
0100
0010
1000
0010
0100
0000
0001
0100
,
1010
0000
0000
0000
0000
1000
0100
0010
0101
0000
0000
0000
0000
1000
0100
0010
,
0001
1000
0100
0010
0100
1000
0100
0010
1001
0000
1100
0000
1001
0011
0000
0001
,
1001
0000
0000
1100
0000
0000
1000
0000
1001
0000
0000
0101
0000
0000
0000
0000
1002
0000
0000
0000
0000
0000
0103
0000
1000
0000
0000
0000
0000
0000
0000
0000
,
0000
0000
0010
0100
0001
0000
1000
0000
0011
0000
0000
1000
0100
0010
0100
1000
,
0101
0110
0101
0000
0000
0000
2002
3003
1100
0110
1100
0000
0000
0000
0102
0000
,
1003
0100
0010
0001
1000
0100
0010
0001
1001
0000
0011
0000
1100
1010
0000
0001
,
1010
0000
0101
0000
0011
0000
1100
0000
1001
0000
0001
0100
0010
1000
0010
0100
,
1001
0000
1100
0000
1010
0000
0101
0000
0011
0000
0100
1000
0010
0100
0001
0010
,
1100
0000
0001
1000
0110
0000
1000
0100
0011
0000
0110
0000
1001
0110
1010
0000
,
1000
0100
0010
0001
1000
0100
0010
0001
1000
0100
0010
0001
1000
0100
0010
0001
,
1000
0001
0010
0100
1000
0001
0010
0100
1000
0001
0010
0100
1000
0001
0010
0100
,
1000
0100
0010
0001
1000
0001
0010
0100
1000
0100
0010
0001
1000
0001
0010
0100
,
1000
0000
0000
0000
;
